Sunday, June 13, 2010

Informasi tentang Video Porno Ariel dan Luna

Menurut Google, tren pencarian kata "Ariel" sudah menurun. Karena itu sebagai penutup berikut ini adalah info sedetail-detailnya tentang Video porno Ariel dan Luna (Sumber dari Jawa Pos bahwa mereka sudah mengakui kalau yang divideo itu mereka) yang barusan saya download SAJA (tidak dilihat) tadi sore.


General
Complete name : C:\Users\User Name\Desktop\luna_maya_1.mp4
Format : MPEG-4
Format profile : Facebook
Codec ID : FACE
File size : 9.75 MiB
Duration : 6mn 49s
Overall bit rate : 200 Kbps
Encoded date : UTC 2010-06-02 15:23:44
Tagged date : UTC 2010-06-03 15:23:45

Video
ID : 1
Format : AVC
Format/Info : Advanced Video Codec
Format profile : Baseline@L1.2
Format settings, CABAC : No
Format settings, ReFrames : 3 frames
Codec ID : avc1
Codec ID/Info : Advanced Video Coding
Duration : 6mn 49s
Bit rate mode : Variable
Bit rate : 152 Kbps
Maximum bit rate : 283 Kbps
Width : 320 pixels
Height : 240 pixels
Display aspect ratio : 4:3
Frame rate mode : Constant
Frame rate : 15.000 fps
Color space : YUV
Chroma subsampling : 4:2:0
Bit depth : 8 bits
Scan type : Progressive
Bits/(Pixel*Frame) : 0.132
Stream size : 7.43 MiB (76%)
Writing library : x264 core 72 r1232 c8edc12
Encoding settings : cabac=0 / ref=3 / deblock=1:0:0 / analyse=0x1:0x111 / me=hex / subme=7 / psy=1 / psy_rd=1.0:0.0 / mixed_ref=1 / me_range=16 / chroma_me=1 / trellis=0 / 8x8dct=0 / cqm=0 / deadzone=21,11 / chroma_qp_offset=-2 / threads=6 / nr=0 / decimate=1 / mbaff=0 / bframes=0 / keyint=75 / keyint_min=15 / scenecut=40 / rc_lookahead=40 / rc=2pass / mbtree=1 / bitrate=152 / ratetol=1.0 / qcomp=0.60 / qpmin=10 / qpmax=51 / qpstep=4 / cplxblur=20.0 / qblur=0.5 / vbv_maxrate=182 / vbv_bufsize=760 / ip_ratio=1.40 / aq=1:1.00
Encoded date : UTC 2010-06-02 15:23:44
Tagged date : UTC 2010-06-02 15:23:45

Audio
ID : 2
Format : AAC
Format/Info : Advanced Audio Codec
Format version : Version 4
Format profile : LC
Format settings, SBR : No
Format settings, PS : Yes
Codec ID : 40
Duration : 6mn 49s
Bit rate mode : Variable
Bit rate : 45.6 Kbps
Maximum bit rate : 61.5 Kbps
Channel(s) : 2 channels
Channel positions : Front: L R
Sampling rate : 44.1 KHz
Stream size : 2.22 MiB (23%)
Encoded date : UTC 2010-06-02 15:23:45
Tagged date : UTC 2010-06-02 15:23:45
Serta yang ini:


General
Complete name : C:\Users\User Name\Desktop\luna_maya_2.mp4
Format : MPEG-4
Format profile : Facebook
Codec ID : FACE
File size : 3.28 MiB
Duration : 2mn 37s
Overall bit rate : 175 Kbps
Encoded date : UTC 2010-06-02 14:20:15
Tagged date : UTC 2010-06-03 14:20:15

Video
ID : 1
Format : AVC
Format/Info : Advanced Video Codec
Format profile : Baseline@L1.2
Format settings, CABAC : No
Format settings, ReFrames : 3 frames
Codec ID : avc1
Codec ID/Info : Advanced Video Coding
Duration : 2mn 37s
Bit rate mode : Variable
Bit rate : 127 Kbps
Maximum bit rate : 231 Kbps
Width : 320 pixels
Height : 240 pixels
Display aspect ratio : 4:3
Frame rate mode : Constant
Frame rate : 15.000 fps
Color space : YUV
Chroma subsampling : 4:2:0
Bit depth : 8 bits
Scan type : Progressive
Bits/(Pixel*Frame) : 0.110
Stream size : 2.39 MiB (73%)
Writing library : x264 core 72 r1232 c8edc12
Encoding settings : cabac=0 / ref=3 / deblock=1:0:0 / analyse=0x1:0x111 / me=hex / subme=7 / psy=1 / psy_rd=1.0:0.0 / mixed_ref=1 / me_range=16 / chroma_me=1 / trellis=0 / 8x8dct=0 / cqm=0 / deadzone=21,11 / chroma_qp_offset=-2 / threads=6 / nr=0 / decimate=1 / mbaff=0 / bframes=0 / keyint=75 / keyint_min=15 / scenecut=40 / rc_lookahead=40 / rc=2pass / mbtree=1 / bitrate=127 / ratetol=1.0 / qcomp=0.60 / qpmin=10 / qpmax=51 / qpstep=4 / cplxblur=20.0 / qblur=0.5 / vbv_maxrate=153 / vbv_bufsize=639 / ip_ratio=1.40 / aq=1:1.00
Encoded date : UTC 2010-06-02 14:20:15
Tagged date : UTC 2010-06-02 14:20:15

Audio
ID : 2
Format : AAC
Format/Info : Advanced Audio Codec
Format version : Version 4
Format profile : LC
Format settings, SBR : No
Format settings, PS : Yes
Codec ID : 40
Duration : 2mn 37s
Bit rate mode : Variable
Bit rate : 45.6 Kbps
Maximum bit rate : 60.4 Kbps
Channel(s) : 2 channels
Channel positions : Front: L R
Sampling rate : 44.1 KHz
Stream size : 874 KiB (26%)
Encoded date : UTC 2010-06-02 14:20:15
Tagged date : UTC 2010-06-02 14:20:15
Dari data ini dapat dilihat banyak sekali hal yang bisa dianalisa. Salah satunya video ini diambil dari FB. Juga mengenai codec, dll. Semoga kejadian ini tidak terulang lagi oleh siapapun. AMIN!
Ingat karma, apakah anda mau video porno anda dilihat orang? TIDAK! Apakah anda mau video porno anda didownload orang lalu dilihat metadatanya? YA GPP. :)).

1 comment:

  1. yang menarik di posting ini adalah "DOWNLOAD SAJA (TIDAK DILIHAT)"... penting ya?

    ReplyDelete


Powered By Bloomberg